[NSBC] Heaven? E06 [WEBDL] [1080p]

Category:
Date:
2019-08-13 23:28 UTC
Submitter:
Seeders:
25
Information:
TlNCQy50bw==
Leechers:
7
File size:
766.0 MiB
Completed:
690
Info hash:
d3dfda11ae5b1fe9ec426de5240f0fd775226909
> ### Download the revision Episode 1 in [here](http://bit.ly/2H48m6f) ![Posters](http://img.topddl.net/images/47a1b6d2fcc06d3ca9d26fe2963fc8ad.jpg "") ![Thumbnails](http://img.topddl.net/images/50de171ebdd5c9c6577d5f0e1adf52ee.png "") ``` General Unique ID : 298168374374387318263102625685263993904 (0xE05123DB79E22E8D7BC7C77EB079CC30) Complete name : [NSBC] Heaven? E06 [WEBDL] [1080p].mkv Format : Matroska Format version : Version 4 File size : 766 MiB Duration : 48 min 19 s Overall bit rate : 2 216 kb/s Movie name : [NSBC] Heaven? E06 [WEBDL] [1080p] Encoded by : NoNe | NSBC Encoded date : UTC 2019-08-13 23:15:29 Writing application : mkvmerge v36.0.0 ('Is That Jazz?') 64-bit Writing library : libebml v1.3.9 + libmatroska v1.5.2 Copyright : NSBC Comment : NoNe | NSBC DATE_RECORDED : 2019 Video ID : 1 Format : AVC Format/Info : Advanced Video Codec Format profile : [email protected] Format settings : CABAC / 4 Ref Frames Format settings, CABAC : Yes Format settings, Reference frames : 4 frames Codec ID : V_MPEG4/ISO/AVC Duration : 48 min 18 s Bit rate : 2 150 kb/s Width : 1 920 pixels Height : 1 080 pixels Display aspect ratio : 16:9 Frame rate mode : Constant Frame rate : 29.970 (30000/1001) FPS Color space : YUV Chroma subsampling : 4:2:0 Bit depth : 8 bits Scan type : Progressive Bits/(Pixel*Frame) : 0.035 Stream size : 743 MiB (97%) Title : [NSBC] Writing library : Zencoder Video Encoding System Default : No Forced : No Color range : Limited Color primaries : BT.709 Transfer characteristics : BT.709 Matrix coefficients : BT.709 Audio ID : 2 Format : AAC LC Format/Info : Advanced Audio Codec Low Complexity Codec ID : A_AAC-2 Duration : 48 min 19 s Bit rate : 64.0 kb/s Channel(s) : 2 channels Channel layout : L R Sampling rate : 48.0 kHz Frame rate : 46.875 FPS (1024 SPF) Compression mode : Lossy Delay relative to video : -67 ms Stream size : 22.1 MiB (3%) Title : [NSBC] Language : Japanese Default : Yes Forced : No ```

File list

  • [NSBC] Heaven? E06 [WEBDL] [1080p].mkv (766.0 MiB)

X
Attention! Use a VPN when Accessing Free Content !
Your IP address is - Country:
Your Internet provider Tracks your Activity! Hide your IP ADDRESS with a VPN!
Bonus: Get Lag-Free Streams & No popups with any VPN Purchased !

Download Here